Beautiful Boy 2010 1080p BluRay H264 AAC-RARBG


    Seeders : 0      Leechers : 0

Hash :D5EE36DAF1AD3030420768667E8B2EBA63244110
Added :1 Year+ in Other - Other
Size :1.91 GB
Stream :Watch Full Movie Online @ Movie4u
Share :


Beautiful Boy 2010 1080p BluRay H264 AAC-RARBG
Download Direct And Anonymously







Warning! Do not Download Torrents Without a VPN!
Your IP Address is 185.162.9.168.   And Location is Netherlands, Naaldwijk
Your Internet Provider and Government can track your torrent Activity!  Hide your IP ADDRESS with a VPN!
We Strongly Recommend Using Best Cheapest VPN to Anonymize your Torrenting.

Note :

Please Update (Trackers Info) Before Start Torrents Downloading to See Updated Seeders And Leechers for Batter Download Speed.

Trackers List

Tracker NameLast CheckStatusSeedersLeechers




Torrent File Content (8 files)


Beautiful.Boy.2010.1080p.BluRay.H264.AAC-RARBG
     Beautiful.Boy.2010.1080p.BluRay.H264.AAC-RARBG.mp4 -
1.91 GB

     Beautiful.Boy.2010.1080p.BluRay.H264.AAC-RARBG.nfo -
3.96 KB

     RARBG.COM.mp4 -
992.93 KB

     RARBG.COM.txt -
34 bytes

    Subs
          Dan.srt -
51.45 KB

          Fin.srt -
51.11 KB

          Nor.srt -
51.6 KB

          Swe.srt -
52.68 KB



Description



 							
http://rarbg.to
Beautiful.Boy.2010.1080p.BluRay.H264.AAC-RARBG

image
Screens :

http://imagecurl.com/images/75041353068874689360_thumb.png


http://imagecurl.com/images/70643838383734340345_thumb.png


http://imagecurl.com/images/97530523145506240356_thumb.png


http://imagecurl.com/images/80229723736182575096_thumb.png


http://imagecurl.com/images/45035443942338328479_thumb.png

Mediainfo :

Video
ID : 1
Format : AVC
Format/Info : Advanced Video Codec
Format profile : [email protected]
Format settings, CABAC : Yes
Format settings, ReFrames : 4 frames
Codec ID : avc1
Codec ID/Info : Advanced Video Coding
Duration : 1h 40mn
Bit rate : 2 500 Kbps
Width : 1 920 pixels
Height : 1 040 pixels
Display aspect ratio : 1.85:1
Frame rate mode : Constant
Frame rate : 24.000 fps
Color space : YUV
Chroma subsampling : 4:2:0
Bit depth : 8 bits
Scan type : Progressive
Bits/(Pixel*Frame) : 0.052
Stream size : 1.75 GiB (92%)
Writing library : x264 core 148 r2638M 7599210
Encoding settings : cabac=1 / ref=4 / deblock=1:-1:-1 / analyse=0x3:0x113 / me=umh / subme=9 / psy=1 / psy_rd=1.00:0.15 / mixed_ref=1 / me_range=24 / chroma_me=1 / trellis=2 / 8x8dct=1 / cqm=0 / deadzone=21,11 / fast_pskip=1 / chroma_qp_offset=-3 / threads=32 / lookahead_threads=4 / sliced_threads=0 / nr=0 / decimate=1 / interlaced=0 / bluray_compat=0 / constrained_intra=0 / bframes=3 / b_pyramid=2 / b_adapt=2 / b_bias=0 / direct=3 / weightb=1 / open_gop=0 / weightp=2 / keyint=250 / keyint_min=25 / scenecut=40 / intra_refresh=0 / rc_lookahead=50 / rc=2pass / mbtree=1 / bitrate=2500 / ratetol=1.0 / qcomp=0.60 / qpmin=0 / qpmax=69 / qpstep=4 / cplxblur=20.0 / qblur=0.5 / vbv_maxrate=31250 / vbv_bufsize=31250 / nal_hrd=none / filler=0 / ip_ratio=1.40 / aq=3:1.00
Encoded date : UTC 2016-04-09 06:41:29
Tagged date : UTC 2016-04-09 06:41:29

Audio
ID : 2
Format : AAC
Format/Info : Advanced Audio Codec
Format profile : LC
Codec ID : 40
Duration : 1h 40mn
Bit rate mode : Constant
Bit rate : 224 Kbps
Channel(s) : 2 channels
Channel(s)_Original : 6 channels
Channel positions : Front: L C R, Side: L R, LFE
Sampling rate : 48.0 KHz
Frame rate : 46.875 fps (1024 spf)
Compression mode : Lossy
Stream size : 160 MiB (8%)
Language : English
Default : Yes
Alternate group : 1
Encoded date : UTC 2016-04-09 06:41:29
Tagged date : UTC 2016-04-09 06:41:29




Related torrents

Torrent NameAddedSizeSeedLeechHealth
1 Year+ - in Other1.21 GB00
1 Year+ - in Other1.77 GB01
1 Year+ - in Movies7.65 GB00
1 Year+ - in Movies2.21 GB00
1 Year+ - in Movies1.87 GB11

Note :

Feel free to post any comments about this torrent, including links to Subtitle, samples, screenshots, or any other relevant information. Please Dont Download anything from Comments, And Links to Streaming Sites like Watch Online Beautiful Boy 2010 1080p BluRay H264 AAC-RARBG Full Movie, Fmovies, 123Movies, Putlocker, Netflix, etc.

Comments (0 Comments)




Please login or create a FREE account to post comments

Latest Searches

Sitemap